Просмотр сообщений

В этом разделе можно просмотреть все сообщения, сделанные этим пользователем.


Темы - Triangle

Страницы: [1] 2 3 ... 79
1
Суть проблемы, есть некоторое число пользователей, ну в основном откровенно два вида, первый это технари, у которых просто бесконечный список софта, который им надо ставить, второй это начальники которые сами знают как им лучше, ну на вторую категорию мне всё равно, а вот первая иногда беспокоит тем что поступает неразумно. Что делать ума не приложу. SRP здесь не катит, я не могу предугадать что ему надо будет завтра. Какая программа и куда захочет поставиться.

Может я чего то не знаю, не вижу. дайте направление.

2
Не работает исключение для файла.
В политике KSC добавил для файла %USERPROFILE%\Desktop\AMMYY.exe правила в доверенной зоне и как Исключения из проверки и как Доверенные программы.
Убивает на лету всё равно.
KSC 10.3.407
KES 10.3.0.6294

цитата от одного из участников форума
Цитата
Процитирую свой кейс:
INC000007764312 Пользовательские переменные
Добрый день, Андрей.
Я уточнил информацию в экспертном отделе, к сожалению, переменная %userprofile% , применяемая из политики, не поддерживается в KES10SP2. Исключения необходимо добавлять по абсолютному пути.
:negodue:

3
Тема такая что надо поставить вместо 3 дюймовых двухдюймовые, но я не знаю как правильно их выбрать, оказалось у них два типа их, и черт его знает как проверить совместимость, дело в том что я даже точно и не знаю, а где посмотреть то, сейчас конечно попробую найти надписи, слава богу сервер на 5 минут погасить можно, но вдруг кто что подскажет.
Есть MCP-220-00043-0N    Лоток для замены штатного лотка NCP-220-00024-0B
Есть MCP-220-00080-0B    Лоток для замены штатного лотка CSE-PT17-B


Updated: 16 May 2017, 18:07:56

А разобрался, разглядел, они хорошо отличаются по закрывашке.
MCP-220-00080-0B
MCP-220-00043-0N

4
Есть файл wmv, под спойлером медиаинфо.
Спойлер для скрыто:
General
Format                                   : Windows Media
File size                                : 266 MiB
Overall bit rate mode                    : Variable
Maximum Overall bit rate                 : 27.9 Mbps
Encoded date                             : UTC 2011-05-04 16:59:42.437
Video
ID                                       : 3
Format                                   : GoToMeeting3
Codec ID                                 : G2M3
Codec ID/Info                            : Citrix Systems, Inc.
Bit rate mode                            : Variable
Bit rate                                 : 27.6 Mbps
Width                                    : 1 280 pixels
Height                                   : 1 024 pixels
Display aspect ratio                     : 5:4
Frame rate                               : 29.970 (29970/1000) fps
Bit depth                                : 8 bits
Bits/(Pixel*Frame)                       : 0.704
Language                                 : Russian (RU)
Audio
ID                                       : 1
Format                                   : WMA
Format version                           : Version 2
Codec ID                                 : 161
Codec ID/Info                            : Windows Media Audio
Description of the codec                 : Windows Media Audio 9 -  48 kbps, 44 kHz, mono 1-pass CBR
Bit rate mode                            : Constant
Bit rate                                 : 48.0 Kbps
Channel(s)                               : 1 channel
Sampling rate                            : 44.1 KHz
Bit depth                                : 16 bits
Language                                 : English (US)
Тоска-печаль в том что файл неиндексированый, что весьма неудобно. При попытке его во что то конвертнуть натыкаюсь на то что он рубится... Пять минут и всё, а там часа три где то должно быть.



Updated: 14 May 2017, 12:39:02

Если кому интересно, то справился SolveigMM Video Splitter, обычное восстановление индексов не помогло, а вот ремукс сразу дал результат, файл пофиксился.
И данные файла сразу исправились.

Спойлер для скрыто:
General
Format                                   : Windows Media
File size                                : 271 MiB
Duration                                 : 3h 59mn
Overall bit rate mode                    : Variable
Overall bit rate                         : 158 Kbps
Maximum Overall bit rate                 : 1 625 Kbps
Encoded date                             : UTC 2017-05-14 09:33:33.354

Video
ID                                       : 1
Format                                   : GoToMeeting3
Codec ID                                 : G2M3
Codec ID/Info                            : Citrix Systems, Inc.
Duration                                 : 3h 59mn
Bit rate mode                            : Variable
Bit rate                                 : 105 Kbps
Width                                    : 1 280 pixels
Height                                   : 1 024 pixels
Display aspect ratio                     : 5:4
Frame rate                               : 29.970 (29970/1000) fps
Bit depth                                : 8 bits
Bits/(Pixel*Frame)                       : 0.003
Stream size                              : 180 MiB (66%)
Language                                 : Russian

Audio
ID                                       : 2
Format                                   : WMA
Format version                           : Version 2
Codec ID                                 : 161
Codec ID/Info                            : Windows Media Audio
Duration                                 : 3h 59mn
Bit rate mode                            : Constant
Bit rate                                 : 1 411 Kbps
Channel(s)                               : 1 channel
Sampling rate                            : 44.1 KHz
Bit depth                                : 16 bits
Stream size                              : 2.36 GiB
Language                                 : Russian

5
Вопросы:
Если вести речь о 2 дюймах, насколько стабильно они кормятся от USB?
Кого из производителей коробок порекомендуете? К сожалению у меня что то по WD много нареканий, и именно на коробки, не на диски.


6
В пылу поисков виновника тормозов на машине вырубаю защиту каспера, ну через его менюшку, насовсем, и тут мне приспичило открыть вазап веб клиент, шлет в дупу с ошипкой https, открываю несколько сайтов, все с разными ошибками https шлют меня в топку, у кого сертификаты дескать кривые, у кого протоколы вобщем все гады, мы одни тут в белом... Включаю Каспера, всё начинает работать, выключаю защиту снова здорова...

7
Требуется в Москве. Фирма, гении одиночки простите, но нет.

8
Есть какие заподлянки или нет?

9
А то и у меня и у жены стали разваливаться очки, был в Декатлоне, тактильно понравилось многое. сидят прочно закрывают с боков. Насколько честно давят ультрафиолет, ну не знаю...
Куда ещё солнецезащитных очков можно сходить пощупать? Спортмастер? Ещё куда? Может какие то есть магазины специализирующиеся на этой теме?

10
Система белая, нормальная, в какой то момент сказала ой. Контрольных точек не видит. Что в обычном, что в безопасном режиме нет рабочего стола, курсор, активный, индикатор харда помаргивает, ни на какие комбинации клавиш не реагирует, в сейфмод та же байда.

11
Это скриншот с 2010, куда это запрятали в 2013? Или это шутки от Windows10?
ila_rendered

12
Hardware / Сканер для электронного архива?
« : 20 Апреля 2017, 15:52:30 »
Собственно если кто  то юзает сканеры способные перемалывать целые стопки документов, прошу отзывов.

13
Software / Электронный архив?
« : 20 Апреля 2017, 15:43:32 »
Не внедрял ли кто такое у себя, возникла мысль избавиться от папок с бумажками.

14
Не получается совместить быстрый набор и BLF (Yealink T28P, Mango)
Если я вписываю на BLF кнопку внутренний номер абонента, то набор есть, но нет индикации.
Если я вписываю на BLF кнопку sip аккаунт абонента, то индикация есть, но нет набора.

15
Шкаф напольный серверный 18U глубина1100 1000р. Москва, самовывоз
Цвет серый в крыше 4 вентилятора, передняя дверь стекло.
Как звать не помню, китаеза какая то.

Шкаф настенный 9U Hyperline глубина 400.

Страницы: [1] 2 3 ... 79